Mayonez.Net

RSS
«    Kasım 2020    »
PtSaÇrPrCuCtPz
 1
2345678
9101112131415
16171819202122
23242526272829
30 

Battleship 2012 TS XviD (Türkçe Altyazılı)


Battleship 2012 TS XviD (Türkçe Altyazılı)

BattleShip | 2012 | TS XViD | Türkçe Altyazılı

http://www.imdb.com/title/tt1440129/

Yapımcılığını ve yönetmenliğini Peter Berg?in (Hancock) üstlendiği destansı aksiyon-macera filmi Battleship?te gezegenimiz; denizde, gözyüzünde ve karada üstün bir güce karşı hayatta kalma savaşı veriyor. Hasbro?nun klasik donanma savaş oyunu Amiral Battı?dan uyarlanan filmde, USS John Paul Jones?ta görevlendirilen bir Donanma subayı olan Teğmen Alex Hopper rolünde Taylor Kitsch karşımıza çıkıyor. Fizyoterapist ve Hopper?ın nişanlısı Sam Shane rolünde Brooklyn Decker; USS Sampson?ın komutanı ve Hopper?ın ağabeyi Stone rolünde Alexander Skarsgard ve Hopper?ın silah arkadaşı USS John Paul Jones?ta silah uzmanı olarak görev yapan Deniz Astsubayı Raikes rolünde ise Rihanna yer alıyor. Hopper ve Stone?un amiri (ve Sam?in babası) Amiral Shane?i ise uluslararası bir yıldız olan Liam Neeson canlandırıyor. Berg, hem bu destansı aksiyon-macera filminin yönetmenliğini yaptı, hem de Scott Stuber (Couples Retreat/Arızalı Çiftler), Sarah Aubrey (The Kingdom/Krallık), Brian Goldner, Hasbro?dan Bennett Schneir (the Transformers serisi) ve Duncan Henderson?la (Master and Commander/Dünyanın Uzak Ucu) birlikte yapımcılığını üstlendi.


Complete name                            : BattleShip.2012.TS.XViD.AC3-ADTRG.avi
Format                                   : AVI
Format/Info                              : Audio Video Interleave
File size                                : 1.53 GiB
Duration                                 : 2h 1mn
Overall bit rate                         : 1 800 Kbps
Writing library                          : VirtualDub build 34703/release

Video
ID                                       : 0
Format                                   : MPEG-4 Visual
Codec ID                                 : XVID
Bit rate                                 : 1 598 Kbps
Width                                    : 720 pixels
Height                                   : 320 pixels
Display aspect ratio                     : 2.25:1
Frame rate                               : 30.000 fps
Stream size                              : 1.36 GiB (89%)

Audio
ID                                       : 1
Format                                   : AC-3
Bit rate                                 : 192 Kbps
Channel(s)                               : 2 channels
Channel positions                        : Front: L R
Stream size                              : 165 MiB (11%)




Battleship 2012 TS XviD (Türkçe Altyazılı)
Battleship 2012 TS XviD (Türkçe Altyazılı)
Battleship 2012 TS XviD (Türkçe Altyazılı)




Battleship 2012 TS XviD (Türkçe Altyazılı)


.::::: TURBOBİT TEK LİNK İNDİR :::::.

http://turbobit.net/qrsojkkgiw1o.html


ALTYAZI TAKİP

http://divxplanet.com/sub/m/29460/Battleship.html

Görüntülenme : 2823 Yorumlar (0)
Değerli ziyaretçimiz, sitemize üye iseniz lütfen giriş yapınız.
üye değlseniz üye olmak için tıklayın.
Bilgi
Yorum Ekleyebilmeniz için Sitemize Kayıt Olmanız Gerekmektedir.

Sponsorlu

Anket

Mayonez.Net'i ne için tercih ediyorsunuz?

Film
Oyun
Dizi
Program
Wallpaper
Diğer+
Hepsi

Arşiv
Kasım 2020 (252)
Ekim 2020 (341)
Eylül 2020 (122)
Ağustos 2020 (189)
Temmuz 2020 (137)
Haziran 2020 (260)

Copyright © 2012 Mayonez.Net 2006 - 2012