Mayonez.Net

RSS
«    May 2020    »
PtSaÇrPrCuCtPz
 123
45678910
11121314151617
18192021222324
25262728293031

The Change-Up (2011) TS XViD

The Change-Up (2011)  TS XViD






http://www.imdb.com/title/tt1754506/



Audio.....: English
Subtitles.: None
Format                           : AVI
Format/Info                      : Audio Video Interleave
File size                        : 1.37 GiB
Duration                         : 1h 46mn
Overall bit rate                 : 1 835 Kbps
Writing library                  : VirtualDub build 30586/release
Video
ID                               : 0
Format                           : MPEG-4 Visual
Format profile                   : Advanced [email protected]
Format settings, BVOP            : Yes
Format settings, QPel            : No
Format settings, GMC             : No warppoints
Format settings, Matrix          : Default (MPEG)
Muxing mode                      : Packed bitstream
Codec ID                         : XVID
Codec ID/Hint                    : XviD
Duration                         : 1h 46mn
Bit rate                         : 1 696 Kbps
Width                            : 640 pixels
Height                           : 288 pixels
Display aspect ratio             : 2.222
Frame rate                       : 29.000 fps
Color space                      : YUV
Chroma subsampling               : 4:2:0
Bit depth                        : 8 bits
Scan type                        : Progressive
Bits/(Pixel*Frame)               : 0.317
Stream size                      : 1.26 GiB (92%)
Writing library                  : XviD 64
Audio
ID                               : 1
Format                           : MPEG Audio
Format version                   : Version 1
Format profile                   : Layer 3
Mode                             : Joint stereo
Mode extension                   : MS Stereo
Codec ID                         : 55
Codec ID/Hint                    : MP3
Duration                         : 1h 46mn
Bit rate mode                    : Constant
Bit rate                         : 128 Kbps
Channel(s)                       : 2 channels
Sampling rate                    : 44.1 KHz
Stream size                      : 97.8 MiB (7%)
Alignment                        : Split accross interleaves
Interleave, duration             : 34 ms (1.00 video frame)
Writing library                  : LAME3.98r
Encoding settings                : -m j -V 4 -q 2 -lowpass 17 -b 128





The Change-Up (2011)  TS XViD







Download Wupload






Download Fileserve


Görüntülenme : 2990 Yorumlar (1)

EKOCRO

  • 3 Ekim 2011 ; 07:54
  • Kayıt Tarihi: 25.03.2011
  • ICQ:
  • Yorumları: 53
  • Rütbe
imdb linki yanlış..

--------------------

Değerli ziyaretçimiz, sitemize üye iseniz lütfen giriş yapınız.
üye değlseniz üye olmak için tıklayın.
Bilgi
Yorum Ekleyebilmeniz için Sitemize Kayıt Olmanız Gerekmektedir.

Sponsorlu

Anket

Mayonez.Net'i ne için tercih ediyorsunuz?

Film
Oyun
Dizi
Program
Wallpaper
Diğer+
Hepsi

Arşiv
Mayıs 2020 (294)
Nisan 2020 (570)
Mart 2020 (446)
Şubat 2020 (308)
Ocak 2020 (338)
Aralık 2019 (395)

Copyright © 2012 Mayonez.Net 2006 - 2012